8gb ddr3 ram for laptop

Some laws that prohibit certain types of unethical or illegal corporate behavior explicitly protect employee whistleblowers. For example, the Sarbanes-Oxley Act, passed in 2002 to protect investors from corporate financial wrongdoing, includes whistleblower protections for employees who report financial irregularities and shareholder fraud.
Oct 22, 2020 · The sample explanations include information on distributions from a designated Roth account under an employer plan and explain rules that apply in special situations, such as when a distribution is made to a surviving spouse or other beneficiary. The employer must give the notice between 30-180 days before an employee receives a distribution.
Oct 06, 2016 · Porcello's strikeout rate is only 1 percent higher than last year, and while he did cut his walk rate to a career low, an ESPN stat we monitor called hard-hit average says Porcello basically gave ...
Nov 30, 2020 · Marine SOx Scrubber System Market Overview. The Marine SOx Scrubber System Market Report provides comprehensive data on market dynamics, market trends, product growth rate, and price. The Marine SOx Scrubber System market report has various facts and statistics assuming the future predictions of the upcoming market participants.
See full list on poikosoft.com
Feb 04, 2020 · The Sarbanes-Oxley Act of 2002 is a complex and lengthy piece of legislation. Three of its key provisions are commonly referred to by their section numbers: Section 302, Section 404, and Section 802.
Apr 27, 2018 · Sometimes, statistics can be funny in April. A few examples: (All numbers are through games of April 26) White Sox home runs this season: 30 White Sox home runs at Guaranteed Rate Field: 8
Learn about SOX compliance in Data Protection 101, our series on the fundamentals of data To comply with SOX, corporations must save all business records, including electronic records and...
The sample rate in samples per second (`Hertz' or `Hz'). Digital telephony traditionally uses a sample rate When playing a file with a sample rate that is not supported by the audio output device, SoX...
Overview and objective of SOX test of effectiveness and documentation. Covers the lead sheet and documentation, test procedures and workpaper documentation.
Honoring u.s. servicemen 6 cent stamp

Draw the electron configuration for a neutral atom of manganese.

59 brim bloods knowledge

Isis footage graphic

Among the 11 Sox groups, SoxB, SoxC, SoxD, SoxE and SoxF are believed to be core Sox subgroups (Heenan, Zondag & Wilson, 2016), as these genes could be found in almost all animals including the most basal animals (Fortunato et al., 2012). Transcription factors of Sox genes have various functions in the growth and developmental processes of animals.

Wet location dimmer switch

I would like to get the sample-rate of a given audio file using sox. Couldn't find the commandline to do that.As an added extra, SoX can play and record audio files on many common platforms. SoX is often used to convert an audio file from one sampling rate to another rate (e.g. from DAT to CD rates). SoX’s resampling algorithm is highly configurable. AuditBoard is the leading cloud-based platform transforming how enterprises manage risk. Its integrated suite of easy-to-use audit, risk, and compliance solutions streamlines internal audit, SOX compliance, controls management, risk management, and security compliance. Numbers showed a 20% rate of audit failure at E&Y for 2010, more than double the rate in the 2009 inspections. Compliance Week reported even higher audit failure rates at other large firms based on 2010 PCAOB inspections: 22% at KPMG, 39% at Pricewaterhouse-Coopers, and 45% at Deloitte. Pre-suming the sample of engagements selected by PCAOB ... For example, if audio was recorded with a sample-rate of say 48k from a source that played back a little, say 1.5%, too slowly, then sox -r 48720 input.wav output.wav effectively corrects the speed by changing only the file header (but see also the speed effect for the more usual solution to this problem). sox --show-progress 01.Shine\ On\ You\ Crazy\ Diamond\ \(Part\ One\).ogg -C -2 Crazy.mp3 Input File : '01.Shine On You Crazy Diamond (Part One).ogg' Channels : 2 Sample Rate : 44100 Precision : 16-bit Duration : 00:13:30.80 = 35756280 samples = 60810 CDDA sectors File Size : 19.0M Bit Rate : 188k Sample Encoding: Vorbis

Diy gun holster

Texarkana arkansas arrests

Clemmer dulcimers for sale